AIBA Pro Boxing [18.09.2015 MPEG-TS 576p RU] :: Fight Tracker Russia

AIBA Pro Boxing [18.09.2015 MPEG-TS 576p RU]

Ответить на тему
 
Автор Сообщение

Romapunk ®

Пол: Мужской

Стаж: 2 года

Сообщений: 444

Откуда: Вологодская область

Создавать темы 19-Сен-2015 17:02

[Цитировать]


Описание: AIBA Pro Boxing
Дата проведения: 18/09/2015
Место проведения: Москва/Россия
Язык комментариев: Русский
Продолжительность: 02:21:09

Список поединков

APB WORLD CHAMPIONSHIP 81KG AND 91KG
1. ERDENEBAT Nyamsuren (MNG) vs GERMAKHANOV Gairbek
2. OMAROV Magomed (RUS) vs BERNATH Istvan
3. ROUZBAHANI Ehsan (IRN) vs BAUDERLIQUE Mathieu Albert Daniel (FRA)
APB World Title Bout
4. EGOROV Aleksey (RUS) vs RUSSO Clemente (ITA)
APB World Title Bout

Данные видео

General
ID : 0 (0x0)
Complete name : AIBA Pro Boxing [18.09.2015 MPEG-TS 576p RU]-Rpunk.TS
Format : MPEG-TS
File size : 1.61 GiB
Duration : 2h 21mn
Overall bit rate mode : Variable
Overall bit rate : 1 637 Kbps
Video
ID : 301 (0x12D)
Menu ID : 1 (0x1)
Format : AVC
Format/Info : Advanced Video Codec
Format profile : High@L3
Format settings, CABAC : Yes
Format settings, ReFrames : 4 frames
Codec ID : 27
Duration : 2h 21mn
Bit rate : 1 372 Kbps
Width : 720 pixels
Height : 576 pixels
Display aspect ratio : 4:3
Frame rate : 25.000 fps
Standard : PAL
Color space : YUV
Chroma subsampling : 4:2:0
Bit depth : 8 bits
Scan type : Progressive
Bits/(Pixel*Frame) : 0.132
Stream size : 1.41 GiB (87%)
Writing library : x264 core 124
Audio
ID : 302 (0x12E)
Menu ID : 1 (0x1)
Format : MPEG Audio
Format version : Version 1
Format profile : Layer 3
Mode : Joint stereo
Mode extension : MS Stereo
Codec ID : 3
Duration : 2h 21mn
Bit rate mode : Constant
Bit rate : 128 Kbps
Channel(s) : 2 channels
Sampling rate : 44.1 KHz
Compression mode : Lossy
Stream size : 129 MiB (8%)
[Профиль] [ЛС]
Показать сообщения:    
Ответить на тему

Текущее время: 18-Янв 00:33

Часовой пояс: UTC + 1



Вы не можете начинать темы
Вы не можете отвечать на сообщения
Вы не можете редактировать свои сообщения
Вы не можете удалять свои сообщения
Вы не можете голосовать в опросах
Вы не можете прикреплять файлы к сообщениям
Вы не можете скачивать файлы