Battle of Champions Russia vs. World [04.09.2015 MPEG-TS 576p RU]

Ответить на тему
 
Автор Сообщение

Romapunk ®

Пол: Мужской

Стаж: 2 года 8 месяцев

Сообщений: 602

Откуда: Вологодская область

Создавать темы 19-Сен-2015 14:32

[Цитировать]


Описание: Battle of Champions Russia vs. World
Дата проведения: 04/09/2015
Место проведения: Владивосток/Россия
Язык комментариев: Русский
Продолжительность: 02:40:00

Список поединков

Джиу-джитсу. Павел Коржавых (Россия. Пятикратный чемпион мира, чемпион Европы, двукратный победитель Всемирных игр боевых искусств) – Ники Ковэн (Бельгия. Чемпион Европы, 2-кратный призер чемпионатов мира);
Кудо. Гегам Манавазян (Россия. Чемпион мира) — Куниеда Атсуши (Япония. Призер первенства мира, 2-кратный чемпион Японии);
Самбо. Денис Гольцов (Россия. Чемпион Европы) — Ли Сангсу (Южная Корея. Обладатель Кубка мира);
Ушу Саньда. Арслан Бектемиров (Россия. Чемпион мира, чемпион мира по ММА, чемпион Европы, 6-кратный чемпион России) — Ян Юаньфэй (Китай. Чемпион Азии, чемпион Китая);
Киокусинкай. Фарид Касумов (Россия. Чемпион мира, чемпион Европы, 2-кратный чемпион России) — Даниэль Редондо Кардосо (Испания. 2-кратный чемпион Европы, чемпион Испании);
ММА. Шамиль Абдулаев (Россия. Чемпион мира, чемпион России) — Даурен Ермеков (Казахстан. Чемпион Азии, чемпион Казахстана);
Тайский бокс. Артем Вахитов (Россия. Победитель Всемирных Игр боевых искусств, 3-кратный чемпион мира, 4-кратный чемпион Европы, 5-кратный чемпион России) – Олег Приймачов (Украина. Чемпион Европы, чемпион Украины);
Кикбоксинг. Бой за титул чемпиона мира по версии WKF. Тимур Надров (Россия. Победитель Первенства мира, победитель Первенства Европы, чемпион России) — Альберто Симон Монтеро (Испания. Чемпион Иберии, чемпион Испании).

Данные видео

General
ID : 6683 (0x1A1B)
Complete name : Battle of Champions Russia vs. World [04.09.2015 MPEG-TS 576p RU]-Rpunk.ts
Format : MPEG-TS
File size : 1.77 GiB
Duration : 2h 39mn
Overall bit rate mode : Variable
Overall bit rate : 1 587 Kbps
Video
ID : 69 (0x45)
Menu ID : 1 (0x1)
Format : AVC
Format/Info : Advanced Video Codec
Format profile : High@L3
Format settings, CABAC : Yes
Format settings, ReFrames : 4 frames
Codec ID : 27
Duration : 1h 25mn
Bit rate : 1 372 Kbps
Width : 720 pixels
Height : 576 pixels
Display aspect ratio : 4:3
Frame rate : 25.000 fps
Standard : PAL
Color space : YUV
Chroma subsampling : 4:2:0
Bit depth : 8 bits
Scan type : Progressive
Bits/(Pixel*Frame) : 0.132
Stream size : 843 MiB (46%)
Writing library : x264 core 124
Audio
ID : 68 (0x44)
Menu ID : 1 (0x1)
Format : MPEG Audio
Format version : Version 1
Format profile : Layer 3
Mode : Joint stereo
Mode extension : MS Stereo
Codec ID : 3
Duration : 2h 39mn
Bit rate mode : Constant
Bit rate : 128 Kbps
Channel(s) : 2 channels
Sampling rate : 44.1 KHz
Compression mode : Lossy
Delay relative to video : -38ms
Stream size : 146 MiB (8%)
Language : Russian
[Профиль] [ЛС]
Показать сообщения:    
Ответить на тему

Текущее время: 24-Авг 07:51

Часовой пояс: UTC + 1



Вы не можете начинать темы
Вы не можете отвечать на сообщения
Вы не можете редактировать свои сообщения
Вы не можете удалять свои сообщения
Вы не можете голосовать в опросах
Вы не можете прикреплять файлы к сообщениям
Вы не можете скачивать файлы