Fightspirit Championship 5 [06.09.2015 MPEG-TS 576p RU]

Ответить на тему
 
Автор Сообщение

Romapunk ®

Пол: Мужской

Стаж: 2 года 10 месяцев

Сообщений: 743

Откуда: Вологодская область

Создавать темы 19-Сен-2015 14:08

[Цитировать]


Описание: Fightspirit Championship 5
Дата проведения: 06/09/2015
Место проведения: Колпино/Россия
Язык комментариев: Русский
Продолжительность: 02:40:00

Список поединков

1. Павел Коваль (Санкт-Петербург), 1-0 - Джейхун Исаев (Fightspirit), 1-0
2. Ирина Ширяева (Тамбов), 1-1 - Ксения Лачкова (Fightspirit), 4-0
3. Андрей "Iron" Лэжнев (Украина), 6-4 - Сергей Андреев (Fightspirit), 8-3
4. Франкледсон "Frank Boy" Коста (Бразилия), 5-5 - Александр Бутенко (Fightspirit), 37-11-1
5. Денис Комкин (Санкт-Петербург), 14-12 - Джефф Монсон (США), 55-23

Данные видео

General
ID : 6683 (0x1A1B)
Complete name : Fightspirit Championship 5 [06.09.2015 MPEG-TS 576p RU]-Rpunk.ts
Format : MPEG-TS
File size : 1.82 GiB
Duration : 2h 44mn
Overall bit rate mode : Variable
Overall bit rate : 1 583 Kbps
Video
ID : 69 (0x45)
Menu ID : 1 (0x1)
Format : AVC
Format/Info : Advanced Video Codec
Format profile : High@L3
Format settings, CABAC : Yes
Format settings, ReFrames : 4 frames
Codec ID : 27
Duration : 25h 20mn
Bit rate : 1 372 Kbps
Width : 720 pixels
Height : 576 pixels
Display aspect ratio : 4:3
Frame rate : 25.000 fps
Standard : PAL
Color space : YUV
Chroma subsampling : 4:2:0
Bit depth : 8 bits
Scan type : Progressive
Bits/(Pixel*Frame) : 0.132
Stream size : 14.6 GiB
Writing library : x264 core 124
Audio
ID : 68 (0x44)
Menu ID : 1 (0x1)
Format : MPEG Audio
Format version : Version 1
Format profile : Layer 3
Mode : Joint stereo
Mode extension : MS Stereo
Codec ID : 3
Duration : 2h 44mn
Bit rate mode : Constant
Bit rate : 128 Kbps
Channel(s) : 2 channels
Sampling rate : 44.1 KHz
Compression mode : Lossy
Delay relative to video : -53ms
Stream size : 151 MiB (8%)
Language : Russian
[Профиль] [ЛС]
Показать сообщения:    
Ответить на тему

Текущее время: 21-Ноя 07:18

Часовой пояс: UTC + 1



Вы не можете начинать темы
Вы не можете отвечать на сообщения
Вы не можете редактировать свои сообщения
Вы не можете удалять свои сообщения
Вы не можете голосовать в опросах
Вы не можете прикреплять файлы к сообщениям
Вы не можете скачивать файлы