Alash Pride & Tech-Krep FC.Prime Selection.Warriors of Kazakhstan [12.09.2015 MPEG-TS 576p RU]

Ответить на тему
 
Автор Сообщение

Romapunk ®

Пол: Мужской

Стаж: 2 года 10 месяцев

Сообщений: 743

Откуда: Вологодская область

Создавать темы 17-Сен-2015 17:02

[Цитировать]


Описание: Alash Pride & Tech-Krep FC.Prime Selection.Warriors of Kazakhstan
Дата проведения: 12/09/2015
Место проведения: Шымкент/Казахстан
Язык комментариев: Русский
Продолжительность: 02:39:00

Список поединков

1-пара 61,2кг Кубандык «Коба» Самак уулу (61 кг) Кыргызстан, г.Бишкек, команда «Fighter KG» Vs. Жуман «Султан Бейбарс» Жумабеков (61,1 кг) Казахстан, г.Шымкент, команда «Абылайхан»
2-пара 65,8кг Максуд «Рыбак» Аминов (65, 6 кг) Таджикистан, Душанбе, команда «ММА Tajikistan» Vs. Каршыга «Беркут» Дауытбек (65,7 кг) Казахстан, Шымкент, Команда «ALASH PRIDE»
3-пара 65,8кг Расул «Золотой» Тезекбаев (65,8 кг) Кыргызстан, г.Бишкек, команда «Fighter KG» Vs. Закир «Воин» Ахметов (65,6 кг) Казахстан, Караганда, Команда «ALASH PRIDE»
4-пара 70,3кг Бехруз «Онг бак» Зухуров (70 кг) Таджикистан, Душанбе, команда «ММА Tajikistan» Vs. Нариман «Волевой» Мусаев (70,2 кг) Казахстан, Алматы, Команда «ALASH PRIDE»
5-пара 70,3кг Дадахон «Воин» Хасанов (70,1 кг) Узбекистан, г.Ташкент, команда «Max Fighter» Vs. Дархан «Канжар» Адильбеков (70,3 кг) Казахстан, Тараз, Команда «ALASH PRIDE»
6-пара 70,3кг Нурсултан «Буркут» Сайпидинов (70,2 кг) Кыргызстан, г.Бишкек, команда «Fighter KG» Vs. Нурсултан «Жылан» Орынбасаров (70 кг) Казахстан, Алматинская область, Команда «ALASH PRIDE»
7-пара 50кг девушки Мубарак «Хищник» Халимова (49,8 кг) Узбекистан, г.Ташкент, команда «Max Fighter» Vs. Гаухар «Лидер» Шахаева (50 кг) Казахстан, Тараз, команда «Гладиатор»
8-пара 70,3 кг Адилет «Адик» Мусаев (70,2 кг) Кыргызстан, г.Бишкек, команда «Fighter KG» Vs. Сулейман «Великолепный» Исаев (70,1 кг) Казахстан, Алматы, Команда «ALASH PRIDE»
9-пара 70,3кг Мансур «Мангуст» Тугизбаев (70,1 кг) Узбекистан, г.Ташкент, команда «Max Fighter» Vs. Ансаган «Торнадо» Кусаинов (70,2 кг) Казахстан, Алматы, Команда «ALASH PRIDE»
10-пара 93кг Узак «Охотник» Садырбек уулу (92,9 кг) Кыргызстан, г.Бишкек, команда «Fighter KG» Vs. Евгений «Метис» Егембердиев (93 кг) Казахстан, Алматы, Команда «ALASH PRIDE»
11-пара 66 кг Бусурманкул «Алай» Абдибаит уулу (65,7 кг) Кыргызстан, г.Бишкек, команда «Fighter KG» Vs. Ержан «Арлан» Естанов (66 кг) Казахстан, Шымкент, Команда «ALASH PRIDE»
12-пара 83,9кг Сергей «Железный» Король (83,8 кг) Украина, г.Киев, команда «Гермес» Vs. Рамзан «Хан» Алгериев (83,6 кг) Казахстан, Алматы, Команда «ALASH PRIDE»
13-пара 70,3кг Главный бой вечера: Расул Эдиев (70,1 кг) Россия, г.Грозный, команда «Беркут» Vs. Ермек «Аль-Асад» Тлауов (70,3 кг) Казахстан, Алматы, Команда «ALASH PRIDE»

Данные видео

General
ID : 0 (0x0)
Complete name : Alash Pride & Tech-Krep FC.Prime Selection.Warriors of Kazakhstan [12.09.2015 MPEG-TS 576p RU]-Rpunk.ts
Format : MPEG-TS
File size : 1.81 GiB
Duration : 2h 38mn
Overall bit rate mode : Variable
Overall bit rate : 1 632 Kbps
Video
ID : 301 (0x12D)
Menu ID : 1 (0x1)
Format : AVC
Format/Info : Advanced Video Codec
Format profile : High@L3
Format settings, CABAC : Yes
Format settings, ReFrames : 4 frames
Codec ID : 27
Duration : 2h 38mn
Bit rate : 1 422 Kbps
Width : 720 pixels
Height : 576 pixels
Display aspect ratio : 5:4
Frame rate : 25.000 fps
Standard : Component
Color space : YUV
Chroma subsampling : 4:2:0
Bit depth : 8 bits
Scan type : Progressive
Bits/(Pixel*Frame) : 0.137
Stream size : 1.58 GiB (87%)
Color range : Limited
Audio
ID : 302 (0x12E)
Menu ID : 1 (0x1)
Format : MPEG Audio
Format version : Version 1
Format profile : Layer 3
Mode : Joint stereo
Mode extension : MS Stereo
Codec ID : 3
Duration : 2h 38mn
Bit rate mode : Constant
Bit rate : 128 Kbps
Channel(s) : 2 channels
Sampling rate : 44.1 KHz
Compression mode : Lossy
Stream size : 146 MiB (8%)


Последний раз редактировалось: Romapunk (2015-09-19 17:08), всего редактировалось 1 раз
[Профиль] [ЛС]

dardar

Пол: Мужской

Стаж: 2 года 9 месяцев

Сообщений: 45

Создавать темы 18-Сен-2015 12:57 (спустя 19 часов)

[Цитировать]

А где торрент файл то?
[Профиль] [ЛС]
Показать сообщения:    
Ответить на тему

Текущее время: 21-Ноя 07:17

Часовой пояс: UTC + 1



Вы не можете начинать темы
Вы не можете отвечать на сообщения
Вы не можете редактировать свои сообщения
Вы не можете удалять свои сообщения
Вы не можете голосовать в опросах
Вы не можете прикреплять файлы к сообщениям
Вы не можете скачивать файлы