ACB 22.Final Grand Prix [12.09.2015 MPEG-TS 576p RU] :: Fight Tracker Russia

ACB 22.Final Grand Prix [12.09.2015 MPEG-TS 576p RU]

Ответить на тему
 
Автор Сообщение

Romapunk ®

Пол: Мужской

Стаж: 2 года 6 месяцев

Сообщений: 527

Откуда: Вологодская область

Создавать темы 17-Сен-2015 16:52

[Цитировать]


Описание: ACB 22.Final Grand Prix
Дата проведения: 12/09/2015
Место проведения: Cанкт-Петербург
Язык комментариев: Русский
Продолжительность: 03:40:00

Список поединков

11. (77.1 кг) Устармагомед Гаджидаудов (7-1, «Дагфайтерс», Россия) vs Альберт «Мачете» Дураев (7-3, «Беркут», Россия)
Бой за титул чемпиона ACB в наилегчайшем весе
10. (56.7 кг) Руслан «Хищник» Абильтаров (18-5, «YK Promotion», Украина) vs Велимурад Алхасов (3-0, «Беркут», Россия)
9. (70.3 кг) Зульфикар Усманов (6-5, «К4», Россия) vs Абдул-Азиз «Лев» Абдулвахабов (10-1, «Беркут», Россия)
8. (70.3 кг) Эдуард «Львиное Сердце» Вартанян (11-1, «Клуб №1», Россия) vs Али «Халк» Багов (19-8, «Беркут», Россия)
7. (70.3 кг) Антонио Магно (17-3, «XGYM», Бразилия) vs Магомедрасул «Фродо» Хасбулаев (21-5, «Чемпион», Россия)
6. (84 кг) Никола Дипчиков (13-3, Болгария) vs Дмитрий Самойлов (18-7, «Александр Невский ОЭМК», Россия)
5. (77.1 кг) Эмиль «Роза» Розевски (6-0, «WCA FT», Польша) vs Имран Абаев (2-1, «Беркут», Россия)
4. (70.3 кг) Александр Чернов (5-3, «Александр Невский ОЭМК», Россия) vs Сергей Баль (15-7, «Борцовский клуб», Россия)
3. (56.7) Кирилл «Посланник» Медведовски (4-0, «MMA Israel», Израиль) vs Аскар Аскаров (2-0, «Файтинг Иглз», Россия)
2. (56.7 кг) Тарас Грицкив (6-1, «RF Promotion», Украина) vs Хамзат Букиев (2-0, «Беркут», Россия)
1. (93 кг) Алексей Бондарчук (0-0, «Клуб №1», Россия) vs Дмитрий Невинный (2-1, «Борцовский клуб», Россия)

Данные видео

General
ID : 0 (0x0)
Complete name : ACB 22 [12.09.2015 MPEG-TS 576p RU]-Rpunk.ts
Format : MPEG-TS
File size : 2.51 GiB
Duration : 3h 40mn
Overall bit rate mode : Variable
Overall bit rate : 1 630 Kbps
Video
ID : 301 (0x12D)
Menu ID : 1 (0x1)
Format : AVC
Format/Info : Advanced Video Codec
Format profile : High@L3
Format settings, CABAC : Yes
Format settings, ReFrames : 4 frames
Codec ID : 27
Duration : 3h 40mn
Bit rate : 1 420 Kbps
Width : 720 pixels
Height : 576 pixels
Display aspect ratio : 5:4
Frame rate : 25.000 fps
Standard : Component
Color space : YUV
Chroma subsampling : 4:2:0
Bit depth : 8 bits
Scan type : Progressive
Bits/(Pixel*Frame) : 0.137
Stream size : 2.18 GiB (87%)
Color range : Limited
Audio
ID : 302 (0x12E)
Menu ID : 1 (0x1)
Format : MPEG Audio
Format version : Version 1
Format profile : Layer 3
Mode : Joint stereo
Mode extension : MS Stereo
Codec ID : 3
Duration : 3h 40mn
Bit rate mode : Constant
Bit rate : 128 Kbps
Channel(s) : 2 channels
Sampling rate : 44.1 KHz
Compression mode : Lossy
Stream size : 202 MiB (8%)
[Профиль] [ЛС]
Показать сообщения:    
Ответить на тему

Текущее время: 24-Июн 02:49

Часовой пояс: UTC + 1



Вы не можете начинать темы
Вы не можете отвечать на сообщения
Вы не можете редактировать свои сообщения
Вы не можете удалять свои сообщения
Вы не можете голосовать в опросах
Вы не можете прикреплять файлы к сообщениям
Вы не можете скачивать файлы