PANCRASE-YES,WE.ARE.HYBRID.WRESTLERS.1-2 :: Fight Tracker Russia

PANCRASE-YES,WE.ARE.HYBRID.WRESTLERS.1-2

Ответить на тему
 
Автор Сообщение

ujazzz ®

Пол: Мужской

Стаж: 2 года

Сообщений: 610

Откуда: Syberia

Создавать темы 15-Сен-2015 17:18

[Цитировать]


Описание: PANCRASE - YES, WE ARE HYBRID WRESTLERS 1
TOKYO BAY NK HALL, URAYASU, CHIBA, JAPAN
SEP 21, 1993
PANCRASE - YES, WE ARE HYBRID WRESTLERS 2
TSUYUHASHI SPORTS CENTER, NAGOYA, AICHI, JAPAN
OCT 14, 1993
Качество видео: VHSRip
Язык: Японский

FIGHT CARD

Minoru Suzuki vs Katsuomi Inagaki
Bas Rutten vs Ryushi Yanagisawa
Takaku Fuke vs Vernon White
George Weingeroff vs Kazuo 'Yoshiki' Takahashi
Ken Shamrock vs Masacatsu Funaki

Технические характеристики

Minoru Suzuki vs Katsuomi Inagaki

Видео
Идентификатор : 1
Формат : AVC
Формат/Информация : Advanced Video Codec
Профиль формата : Baseline@L3.0
Параметр CABAC формата : Нет
Параметр ReFrames формата : 1 кадр
Идентификатор кодека : avc1
Идентификатор кодека/Информация : Advanced Video Coding
Продолжительность : 4 м. 42 с.
Битрейт : 545 Кбит/сек
Максимальный битрейт : 941 Кбит/сек
Ширина : 534 пикселя
Высота : 360 пикселей
Соотношение сторон : 3:2
Соотношение сторон в оригинале : 3:2
Режим частоты кадров : Постоянный
Частота кадров : 29,970 кадров/сек
Цветовое пространство : YUV
Субдискретизация насыщенности : 4:2:0
Битовая глубина : 8 бит
Тип развёртки : Прогрессивная
Бит/(Пиксели*Кадры) : 0.095
Размер потока : 18,4 Мбайт (85%)
Дата пометки : UTC 2014-02-09 06:31:47
Аудио
Идентификатор : 2
Формат : AAC
Формат/Информация : Advanced Audio Codec
Профиль формата : LC
Идентификатор кодека : 40
Продолжительность : 4 м. 42 с.
Вид битрейта : Переменный
Битрейт : 96,0 Кбит/сек
Максимальный битрейт : 103 Кбит/сек
Каналы : 2 канала
Расположение каналов : Front: L R
Частота : 44,1 КГц
Метод сжатия : С потерями
Размер потока : 3,24 Мбайт (15%)
Заголовок : IsoMedia File Produced by Google, 5-11-2011
Дата кодирования : UTC 2014-02-09 06:31:46
Дата пометки : UTC 2014-02-09 06:31:47

Bas Rutten vs Ryushi Yanagisawa

Видео
Идентификатор : 1
Формат : AVC
Формат/Информация : Advanced Video Codec
Профиль формата : Baseline@L3.0
Параметр CABAC формата : Нет
Параметр ReFrames формата : 1 кадр
Идентификатор кодека : avc1
Идентификатор кодека/Информация : Advanced Video Coding
Продолжительность : 1 м. 55 с.
Битрейт : 419 Кбит/сек
Максимальный битрейт : 967 Кбит/сек
Ширина : 486 пикселей
Высота : 360 пикселей
Соотношение сторон : 4:3
Режим частоты кадров : Постоянный
Частота кадров : 29,970 кадров/сек
Цветовое пространство : YUV
Субдискретизация насыщенности : 4:2:0
Битовая глубина : 8 бит
Тип развёртки : Прогрессивная
Бит/(Пиксели*Кадры) : 0.080
Размер потока : 5,76 Мбайт (81%)
Дата пометки : UTC 2014-01-17 03:30:46
Аудио
Идентификатор : 2
Формат : AAC
Формат/Информация : Advanced Audio Codec
Профиль формата : LC
Идентификатор кодека : 40
Продолжительность : 1 м. 55 с.
Вид битрейта : Переменный
Битрейт : 96,0 Кбит/сек
Максимальный битрейт : 103 Кбит/сек
Каналы : 2 канала
Расположение каналов : Front: L R
Частота : 44,1 КГц
Метод сжатия : С потерями
Размер потока : 1,32 Мбайт (19%)
Заголовок : IsoMedia File Produced by Google, 5-11-2011
Дата кодирования : UTC 2014-01-17 03:30:46
Дата пометки : UTC 2014-01-17 03:30:46

Takaku Fuke vs Vernon White

Видео
Идентификатор : 1
Формат : AVC
Формат/Информация : Advanced Video Codec
Профиль формата : Baseline@L3.0
Параметр CABAC формата : Нет
Параметр ReFrames формата : 1 кадр
Идентификатор кодека : avc1
Идентификатор кодека/Информация : Advanced Video Coding
Продолжительность : 2 м. 47 с.
Битрейт : 459 Кбит/сек
Максимальный битрейт : 878 Кбит/сек
Ширина : 486 пикселей
Высота : 360 пикселей
Соотношение сторон : 4:3
Соотношение сторон в оригинале : 4:3
Режим частоты кадров : Постоянный
Частота кадров : 29,970 кадров/сек
Цветовое пространство : YUV
Субдискретизация насыщенности : 4:2:0
Битовая глубина : 8 бит
Тип развёртки : Прогрессивная
Бит/(Пиксели*Кадры) : 0.088
Размер потока : 9,15 Мбайт (82%)
Дата пометки : UTC 2014-03-17 12:56:35
Аудио
Идентификатор : 2
Формат : AAC
Формат/Информация : Advanced Audio Codec
Профиль формата : LC
Идентификатор кодека : 40
Продолжительность : 2 м. 47 с.
Вид битрейта : Переменный
Битрейт : 96,0 Кбит/сек
Максимальный битрейт : 102 Кбит/сек
Каналы : 2 канала
Расположение каналов : Front: L R
Частота : 44,1 КГц
Метод сжатия : С потерями
Размер потока : 1,91 Мбайт (17%)
Заголовок : IsoMedia File Produced by Google, 5-11-2011
Дата кодирования : UTC 2014-03-17 12:56:35
Дата пометки : UTC 2014-03-17 12:56:35

George Weingeroff vs Kazuo 'Yoshiki' Takahashi

Видео
Идентификатор : 1
Формат : AVC
Формат/Информация : Advanced Video Codec
Профиль формата : Baseline@L3.0
Параметр CABAC формата : Нет
Параметр ReFrames формата : 1 кадр
Идентификатор кодека : avc1
Идентификатор кодека/Информация : Advanced Video Coding
Продолжительность : 2 м. 49 с.
Битрейт : 463 Кбит/сек
Максимальный битрейт : 957 Кбит/сек
Ширина : 486 пикселей
Высота : 360 пикселей
Соотношение сторон : 4:3
Соотношение сторон в оригинале : 4:3
Режим частоты кадров : Постоянный
Частота кадров : 29,970 кадров/сек
Цветовое пространство : YUV
Субдискретизация насыщенности : 4:2:0
Битовая глубина : 8 бит
Тип развёртки : Прогрессивная
Бит/(Пиксели*Кадры) : 0.088
Размер потока : 9,36 Мбайт (82%)
Дата пометки : UTC 2014-02-13 10:53:03
Аудио
Идентификатор : 2
Формат : AAC
Формат/Информация : Advanced Audio Codec
Профиль формата : LC
Идентификатор кодека : 40
Продолжительность : 2 м. 49 с.
Вид битрейта : Переменный
Битрейт : 96,0 Кбит/сек
Максимальный битрейт : 103 Кбит/сек
Каналы : 2 канала
Расположение каналов : Front: L R
Частота : 44,1 КГц
Метод сжатия : С потерями
Размер потока : 1,94 Мбайт (17%)
Заголовок : IsoMedia File Produced by Google, 5-11-2011
Дата кодирования : UTC 2014-02-13 10:53:01
Дата пометки : UTC 2014-02-13 10:53:03

Ken Shamrock vs Masacatsu Funaki

Видео
Идентификатор : 1
Формат : AVC
Формат/Информация : Advanced Video Codec
Профиль формата : Baseline@L3.0
Параметр CABAC формата : Нет
Параметр ReFrames формата : 1 кадр
Идентификатор кодека : avc1
Идентификатор кодека/Информация : Advanced Video Coding
Продолжительность : 8 м. 26 с.
Битрейт : 500 Кбит/сек
Максимальный битрейт : 954 Кбит/сек
Ширина : 486 пикселей
Высота : 360 пикселей
Соотношение сторон : 4:3
Соотношение сторон в оригинале : 4:3
Режим частоты кадров : Постоянный
Частота кадров : 29,970 кадров/сек
Цветовое пространство : YUV
Субдискретизация насыщенности : 4:2:0
Битовая глубина : 8 бит
Тип развёртки : Прогрессивная
Бит/(Пиксели*Кадры) : 0.095
Размер потока : 30,1 Мбайт (84%)
Дата пометки : UTC 2014-02-09 13:50:06
Аудио
Идентификатор : 2
Формат : AAC
Формат/Информация : Advanced Audio Codec
Профиль формата : LC
Идентификатор кодека : 40
Продолжительность : 8 м. 26 с.
Вид битрейта : Переменный
Битрейт : 96,0 Кбит/сек
Максимальный битрейт : 103 Кбит/сек
Каналы : 2 канала
Расположение каналов : Front: L R
Частота : 44,1 КГц
Метод сжатия : С потерями
Размер потока : 5,79 Мбайт (16%)
Заголовок : IsoMedia File Produced by Google, 5-11-2011
Дата кодирования : UTC 2014-02-09 13:50:05
Дата пометки : UTC 2014-02-09 13:50:06

PANCRASE - YES, WE ARE HYBRID WRESTLERS 2

Видео
Идентификатор : 1
Формат : AVC
Формат/Информация : Advanced Video Codec
Профиль формата : Baseline@L3.0
Параметр CABAC формата : Нет
Параметр ReFrames формата : 1 кадр
Идентификатор кодека : avc1
Идентификатор кодека/Информация : Advanced Video Coding
Продолжительность : 3 м. 51 с.
Битрейт : 575 Кбит/сек
Максимальный битрейт : 1024 Кбит/сек
Ширина : 486 пикселей
Высота : 360 пикселей
Соотношение сторон : 4:3
Режим частоты кадров : Постоянный
Частота кадров : 29,970 кадров/сек
Цветовое пространство : YUV
Субдискретизация насыщенности : 4:2:0
Битовая глубина : 8 бит
Тип развёртки : Прогрессивная
Бит/(Пиксели*Кадры) : 0.110
Размер потока : 15,9 Мбайт (85%)
Дата пометки : UTC 2014-08-15 16:05:10
Аудио
Идентификатор : 2
Формат : AAC
Формат/Информация : Advanced Audio Codec
Профиль формата : LC
Идентификатор кодека : 40
Продолжительность : 3 м. 52 с.
Вид битрейта : Переменный
Битрейт : 96,0 Кбит/сек
Максимальный битрейт : 102 Кбит/сек
Каналы : 2 канала
Расположение каналов : Front: L R
Частота : 44,1 КГц
Метод сжатия : С потерями
Размер потока : 2,66 Мбайт (14%)
Заголовок : IsoMedia File Produced by Google, 5-11-2011
Дата кодирования : UTC 2014-08-15 16:05:06
Дата пометки : UTC 2014-08-15 16:05:10

Скриншоты





[Профиль] [ЛС]
Показать сообщения:    
Ответить на тему

Текущее время: 26-Апр 14:38

Часовой пояс: UTC + 1



Вы не можете начинать темы
Вы не можете отвечать на сообщения
Вы не можете редактировать свои сообщения
Вы не можете удалять свои сообщения
Вы не можете голосовать в опросах
Вы не можете прикреплять файлы к сообщениям
Вы не можете скачивать файлы