Bellator.166.Preliminary.Fights.WEB.DL.x264-ThS

Ответить на тему
 
Автор Сообщение

Romapunk ®

Пол: Мужской

Стаж: 2 года 11 месяцев

Сообщений: 772

Откуда: Вологодская область

Создавать темы 08-Дек-2016 18:17

[Цитировать]


Описание: Bellator.166.Preliminary.Fights.WEB.DL.x264-ThS
Дата проведения: 02/12/2016
Место проведения: WinStar World Resort and Casino, Thackerville, Oklahoma, United States
Язык комментариев: English

Fight card

Gregory Babene vs. Emiliano Sordi
Treston Thomison vs. Dawond Pickney
Chris Jones vs. Derrick Adkins
Kinny Spotwood vs. John King

Video Info

General
Complete name : Bellator.166.Preliminary.Fights.WEB.DL.x264-ThS.mp4
Format : MPEG-4
Format profile : Base Media
Codec ID : isom
File size : 1.00 GiB
Duration : 1h 15mn
Overall bit rate mode : Variable
Overall bit rate : 1 902 Kbps
Encoded date : UTC 2016-12-04 22:17:52
Tagged date : UTC 2016-12-04 22:17:52
Writing application : Lavf51.12.1
Video
ID : 1
Format : AVC
Format/Info : Advanced Video Codec
Format profile : Main@L3.1
Format settings, CABAC : Yes
Format settings, ReFrames : 4 frames
Codec ID : avc1
Codec ID/Info : Advanced Video Coding
Duration : 1h 15mn
Bit rate mode : Constant
Bit rate : 1 804 Kbps
Width : 960 pixels
Height : 540 pixels
Display aspect ratio : 16:9
Frame rate mode : Variable
Frame rate : 29.970 fps
Minimum frame rate : 29.412 fps
Maximum frame rate : 30.303 fps
Standard : NTSC
Color space : YUV
Chroma subsampling : 4:2:0
Bit depth : 8 bits
Scan type : Progressive
Bits/(Pixel*Frame) : 0.116
Stream size : 971 MiB (95%)
Encoded date : UTC 2016-12-04 22:17:52
Tagged date : UTC 2016-12-04 22:17:52
Color range : Limited
Color primaries : BT.709
Transfer characteristics : BT.709
Matrix coefficients : BT.709
Audio
ID : 2
Format : AAC
Format/Info : Advanced Audio Codec
Format profile : HE-AAC / LC
Codec ID : 40
Duration : 1h 15mn
Bit rate mode : Variable
Bit rate : 96.0 Kbps
Channel(s) : 2 channels
Channel positions : Front: L R
Sampling rate : 48.0 KHz / 24.0 KHz
Compression mode : Lossy
Stream size : 51.1 MiB (5%)
Encoded date : UTC 2016-12-04 22:17:52
Tagged date : UTC 2016-12-04 22:17:52

Screenshots



[Профиль] [ЛС]

cbis4real

Пол: Не указан

Стаж: 1 год 6 месяцев

Сообщений: 1

Создавать темы 08-Дек-2016 18:51 (спустя 34 минуты)

[Цитировать]

thx
[Профиль] [ЛС]
Показать сообщения:    
Ответить на тему

Текущее время: 11-Дек 05:15

Часовой пояс: UTC + 1



Вы не можете начинать темы
Вы не можете отвечать на сообщения
Вы не можете редактировать свои сообщения
Вы не можете удалять свои сообщения
Вы не можете голосовать в опросах
Вы не можете прикреплять файлы к сообщениям
Вы не можете скачивать файлы