ONE Championship 50 Age of Domination [02.12.2016 1080p CHN] WEB-DL-Rpunk :: Fight Tracker Russia

ONE Championship 50 Age of Domination [02.12.2016 1080p CHN] WEB-DL-Rpunk

Ответить на тему
 
Автор Сообщение

Romapunk ®

Пол: Мужской

Стаж: 2 года 3 месяца

Сообщений: 475

Откуда: Вологодская область

Создавать темы 03-Дек-2016 08:03

[Цитировать]


Описание: ONE Championship 50 Age of Domination [02.12.2016 1080p CHN] WEB-DL-Rpunk
Дата проведения: 02/12/2016
Место проведения: Mall of Asia Arena | Pasay, Manila, Philippines.
Язык комментариев: Chinese

Fight card

Brandon Vera vs. Hideki Sekine For heavyweight title
Bibiano Fernandes vs. Reece McLaren For bantamweight title
Rafael Nunes vs. Mark Striegl
Geje Eustaquio vs. Toni Tauru
Honorio Banario vs. Rajinder Singh Meena
Mohamed Ali vs. Leandro Ataides
Edward Kelly vs. Sunoto Peringkat
Jenny Huang vs. April Osenio
Danny Kingad vs. Eugene Toquero
Xie Bin vs. Mario Satya

Video Info

General
Complete name : ONE Championship 50 Age of Domination [02.12.2016 1080p CHN] WEB-DL-Rpunk.mp4
Format : MPEG-4
Format profile : Base Media
Codec ID : isom
File size : 9.23 GiB
Duration : 4h 48mn
Overall bit rate mode : Variable
Overall bit rate : 4 574 Kbps
Writing application : Lavf56.15.102
Video
ID : 1
Format : AVC
Format/Info : Advanced Video Codec
Format profile : High@L4
Format settings, CABAC : Yes
Format settings, ReFrames : 2 frames
Codec ID : avc1
Codec ID/Info : Advanced Video Coding
Duration : 4h 48mn
Bit rate mode : Variable
Bit rate : 4 436 Kbps
Maximum bit rate : 7 000 Kbps
Width : 1 920 pixels
Height : 1 080 pixels
Display aspect ratio : 16:9
Frame rate mode : Constant
Frame rate : 25.000 fps
Color space : YUV
Chroma subsampling : 4:2:0
Bit depth : 8 bits
Scan type : Progressive
Bits/(Pixel*Frame) : 0.086
Stream size : 8.95 GiB (97%)
Audio
ID : 2
Format : AAC
Format/Info : Advanced Audio Codec
Format profile : LC
Codec ID : 40
Duration : 4h 48mn
Bit rate mode : Constant
Bit rate : 125 Kbps
Channel(s) : 2 channels
Channel positions : Front: L R
Sampling rate : 48.0 KHz
Compression mode : Lossy
Stream size : 259 MiB (3%)

Screenshots



[Профиль] [ЛС]

karchik

Пол: Мужской

Стаж: 2 года 3 месяца

Сообщений: 1694

Откуда: Уругвай

Создавать темы 03-Дек-2016 09:03 (спустя 59 минут)

[Цитировать]

Мохамед Али ? ))))
[Профиль] [ЛС]

zorro

Пол: Мужской

Стаж: 2 года 1 месяц

Сообщений: 1556

Откуда: アラスカ、ロシア

Создавать темы 03-Дек-2016 09:15 (спустя 12 минут)

[Цитировать]

Рома спасибо, Суперкомбат сюда ещё выложи плиз)))
[Профиль] [ЛС]

Romapunk ®

Пол: Мужской

Стаж: 2 года 3 месяца

Сообщений: 475

Откуда: Вологодская область

Создавать темы 03-Дек-2016 10:56 (спустя 1 час 40 минут)

[Цитировать]

9669Рома спасибо, Суперкомбат сюда ещё выложи плиз)))
Я удалил его...
[Профиль] [ЛС]

kakaboo

Пол: Не указан

Стаж: 2 года 3 месяца

Сообщений: 42

Создавать темы 03-Дек-2016 11:00 (спустя 3 минуты)

[Цитировать]

Похоже на человеческих языках уже этого турнира никогда не увидим, а жаль
[Профиль] [ЛС]

Romapunk ®

Пол: Мужской

Стаж: 2 года 3 месяца

Сообщений: 475

Откуда: Вологодская область

Создавать темы 03-Дек-2016 11:18 (спустя 17 минут)

[Цитировать]

9673Похоже на человеческих языках уже этого турнира никогда не увидим, а жаль
Китайцы тебе не простят)
[Профиль] [ЛС]
Показать сообщения:    
Ответить на тему

Текущее время: 26-Мар 15:58

Часовой пояс: UTC + 1



Вы не можете начинать темы
Вы не можете отвечать на сообщения
Вы не можете редактировать свои сообщения
Вы не можете удалять свои сообщения
Вы не можете голосовать в опросах
Вы не можете прикреплять файлы к сообщениям
Вы не можете скачивать файлы