2015-08-01.KOTC-Rumble.on.the.River.WEBRip.Eng :: Fight Tracker Russia

2015-08-01.KOTC-Rumble.on.the.River.WEBRip.Eng

Ответить на тему
 
Автор Сообщение

ujazzz ®

Пол: Мужской

Стаж: 1 год 10 месяцев

Сообщений: 576

Откуда: Syberia

Создавать темы 18-Ноя-2016 05:49

[Цитировать]


Описание: KOTC - RUMBLE ON THE RIVER
King of the Cage
WinnaVegas Casino and Resort, Sloan, Iowa, United States
01.08.2015
Качество видео: WEBRip
Язык: Английский

Тех. данные

Format : WebM
Format version : Version 2
File size : 483 MiB
Duration : 1 h 39 min
Overall bit rate mode : Variable
Overall bit rate : 682 kb/s
Writing application : Google
Writing library : Google
Video
ID : 1
Format : VP8
Codec ID : V_VP8
Duration : 1 h 39 min
Bit rate : 518 kb/s
Width : 540 pixels
Height : 360 pixels
Display aspect ratio : 3:2
Frame rate mode : Constant
Frame rate : 29.970 (30000/1001) FPS
Compression mode : Lossy
Bits/(Pixel*Frame) : 0.089
Stream size : 367 MiB (76%)
Default : Yes
Forced : No
Audio
ID : 2
Format : Vorbis
Format settings, Floor : 1
Codec ID : A_VORBIS
Duration : 1 h 39 min
Bit rate mode : Variable
Bit rate : 128 kb/s
Channel(s) : 2 channels
Sampling rate : 44.1 kHz
Compression mode : Lossy
Stream size : 90.7 MiB (19%)
Writing application : Google
Default : Yes
Forced : No

Скриншоты


[Профиль] [ЛС]

BTW

Пол: Мужской

Стаж: 1 год 8 месяцев

Сообщений: 232

Откуда: Guåhån

Создавать темы 18-Ноя-2016 08:35 (спустя 2 часа 46 минут)

[Цитировать]

Если не ошибаюсь, здесь нет половины боёв вечера, запись тупо обрывается. В своё время стянул видео с ютьюба.
[Профиль] [ЛС]
Показать сообщения:    
Ответить на тему

Текущее время: 22-Фев 00:27

Часовой пояс: UTC + 1



Вы не можете начинать темы
Вы не можете отвечать на сообщения
Вы не можете редактировать свои сообщения
Вы не можете удалять свои сообщения
Вы не можете голосовать в опросах
Вы не можете прикреплять файлы к сообщениям
Вы не можете скачивать файлы