ONE Championship 48 State of Warriors [07.10.2016 720p CHN] WEB-DL-Rpunk :: Fight Tracker Russia

ONE Championship 48 State of Warriors [07.10.2016 720p CHN] WEB-DL-Rpunk

Ответить на тему
 
Автор Сообщение

Romapunk ®

Пол: Мужской

Стаж: 2 года 5 месяцев

Сообщений: 519

Откуда: Вологодская область

Создавать темы 07-Окт-2016 20:24

[Цитировать]


Описание: ONE Championship 48 State of Warriors [07.10.2016 720p CHN] WEB-DL-Rpunk
Дата проведения: 07/10/2016
Место проведения: Thuwunna National Indoor Stadium | Yangon, Myanmar
Язык комментариев: Chinese

Fight card

Strawweight Yoshitaka Naito vs. Joshua Pacio For strawweight title
Middleweight Michal Pasternak vs. Aung La N Sang Yangoon Featherweight Tournament Final
Bantmanweight Muin Gafurov vs. Kevin Belingon
Bantamweight Yusup Saadulaev vs. Jordan Lucas
Featherweight Bashir Ahmad vs. Mahmoud Mohamed
Featherweight Saw Ba Oo vs. Kyal Sin Phyo
Ye Yint Aung vs. Saw Yan Paing Yangoon Featherweight Tournament Semi Final 2
Kat Pali vs. Phoe Thaw Yangoon Featherweight Tournament Semi Final 1

Video Info

General
Complete name : ONE Championship 48 State of Warriors [07.10.2016 720p CHN] WEB-DL-Rpunk.mp4
Format : MPEG-4
Format profile : Base Media
Codec ID : isom
File size : 2.29 GiB
Duration : 3h 32mn
Overall bit rate mode : Variable
Overall bit rate : 1 549 Kbps
Writing application : Lavf56.15.102
Video
ID : 1
Format : AVC
Format/Info : Advanced Video Codec
Format profile : Main@L3.1
Format settings, CABAC : No
Format settings, ReFrames : 4 frames
Codec ID : avc1
Codec ID/Info : Advanced Video Coding
Duration : 3h 32mn
Bit rate mode : Variable
Bit rate : 1 450 Kbps
Maximum bit rate : 2 982 Kbps
Width : 1 280 pixels
Height : 720 pixels
Display aspect ratio : 16:9
Frame rate mode : Constant
Frame rate : 25.000 fps
Color space : YUV
Chroma subsampling : 4:2:0
Bit depth : 8 bits
Scan type : Progressive
Bits/(Pixel*Frame) : 0.063
Stream size : 2.15 GiB (94%)
Audio
ID : 2
Format : AAC
Format/Info : Advanced Audio Codec
Format profile : LC
Codec ID : 40
Duration : 3h 32mn
Bit rate mode : Variable
Bit rate : 86.0 Kbps
Maximum bit rate : 87.0 Kbps
Channel(s) : 2 channels
Channel positions : Front: L R
Sampling rate : 48.0 KHz
Compression mode : Lossy
Stream size : 130 MiB (6%)

Screenshots



[Профиль] [ЛС]
Показать сообщения:    
Ответить на тему

Текущее время: 25-Май 13:29

Часовой пояс: UTC + 1



Вы не можете начинать темы
Вы не можете отвечать на сообщения
Вы не можете редактировать свои сообщения
Вы не можете удалять свои сообщения
Вы не можете голосовать в опросах
Вы не можете прикреплять файлы к сообщениям
Вы не можете скачивать файлы