ShoXC 6 Suganuma vs. Hamman [05.04.2008 720p ENG] WEB-DL-Rpunk :: Fight Tracker Russia

ShoXC 6 Suganuma vs. Hamman [05.04.2008 720p ENG] WEB-DL-Rpunk

Ответить на тему
 
Автор Сообщение

Romapunk ®

Пол: Мужской

Стаж: 2 года 2 месяца

Сообщений: 456

Откуда: Вологодская область

Создавать темы 02-Май-2016 11:14

[Цитировать]


Описание: ShoXC 6 Suganuma vs. Hamman
Дата проведения: 05/04/2008
Место проведения: Table Mountain Casino in Friant, California/USA
Язык комментариев: English

Fight card

Light Heavyweight Poai Suganuma vs Jared Hamman
Lightweight Fabricio Camoe vs Joe Camacho
Women's Catchweight (140 lb.) Shayna Baszler vs Keiko Tamai
Middleweight Giva Santana vs Matt Lucas
Catchweight (147 lb.) Bao Quach vs Doug Evans

Video Info

General
Complete name : ShoXC 6 Suganuma vs. Hamman [05.04.2008 720p ENG] WEB-DL-Rpunk.mp4
Format : MPEG-4
Format profile : Base Media
Codec ID : isom
File size : 500 MiB
Duration : 24mn 22s
Overall bit rate : 2 870 Kbps
Writing application : Lavf56.40.101
Video
ID : 1
Format : AVC
Format/Info : Advanced Video Codec
Format profile : Main@L3.2
Format settings, CABAC : Yes
Format settings, ReFrames : 3 frames
Codec ID : avc1
Codec ID/Info : Advanced Video Coding
Duration : 24mn 22s
Bit rate : 2 763 Kbps
Width : 1 280 pixels
Height : 720 pixels
Display aspect ratio : 16:9
Frame rate mode : Constant
Frame rate : 29.970 fps
Color space : YUV
Chroma subsampling : 4:2:0
Bit depth : 8 bits
Scan type : Progressive
Bits/(Pixel*Frame) : 0.100
Stream size : 482 MiB (96%)
Audio
ID : 2
Format : AAC
Format/Info : Advanced Audio Codec
Format profile : LC
Codec ID : 40
Duration : 24mn 22s
Bit rate mode : Constant
Bit rate : 96.0 Kbps
Channel(s) : 2 channels
Channel positions : Front: L R
Sampling rate : 44.1 KHz
Compression mode : Lossy
Stream size : 17.1 MiB (3%)
[Профиль] [ЛС]

Romapunk ®

Пол: Мужской

Стаж: 2 года 2 месяца

Сообщений: 456

Откуда: Вологодская область

Создавать темы 02-Май-2016 11:37 (спустя 23 минуты)

[Цитировать]

DL с файт пасса)
[Профиль] [ЛС]

zorro

Пол: Мужской

Стаж: 2 года 1 месяц

Сообщений: 1493

Откуда: アラスカ、ロシア

Создавать темы 02-Май-2016 11:40 (спустя 2 минуты)

[Цитировать]

скрины будут?
[Профиль] [ЛС]

Romapunk ®

Пол: Мужской

Стаж: 2 года 2 месяца

Сообщений: 456

Откуда: Вологодская область

Создавать темы 02-Май-2016 11:44 (спустя 4 минуты)

[Цитировать]

6082скрины будут?
Зачем тебе?)
[Профиль] [ЛС]

zorro

Пол: Мужской

Стаж: 2 года 1 месяц

Сообщений: 1493

Откуда: アラスカ、ロシア

Создавать темы 02-Май-2016 11:51 (спустя 6 минут)

[Цитировать]

6083
6082скрины будут?
Зачем тебе?)
очень странный вопрос! ты действительно не понимаешь зачем нужны скриншоты в раздаче?
[Профиль] [ЛС]
Показать сообщения:    
Ответить на тему

Текущее время: 28-Фев 04:08

Часовой пояс: UTC + 1



Вы не можете начинать темы
Вы не можете отвечать на сообщения
Вы не можете редактировать свои сообщения
Вы не можете удалять свои сообщения
Вы не можете голосовать в опросах
Вы не можете прикреплять файлы к сообщениям
Вы не можете скачивать файлы