BAMMA 18: Duquesnoy vs. Klaczek (Full Event) [21.02.2015, MMA, WEB-DL 480p, ENG]

Ответить на тему
 
Автор Сообщение

plarin ®

Пол: Мужской

Стаж: 2 года 7 месяцев

Сообщений: 619

Откуда: Мадрид

Создавать темы 22-Фев-2015 08:35

[Цитировать]

BAMMA 18: Duquesnoy vs. Klaczek (Full Event)- Год выпуска: 21.02.2015
Вид спорта: MMA
Продолжительность: 3:29:59
Язык комментариев: Английский-Описание: Все бои турнира "BAMMA 18: Duquesnoy vs. Klaczek", прошедшего 21 февраля 2015 года в "Wolverhampton Civic Hall", Вулверхемптон, Англия.-Автор рипа/записи: ViLLAiNS-Состав:
1. BAMMA 18: Preliminary Card (1:27:24)
3. BAMMA 18: Main Card (2:02:35)-Качество: WEB-DL 480p
Формат: MP4
Видео: 854x480 (16:9), 29,970 fps, H264, ~1500 kbps avg, ~0.130 bit/pixel
Аудио: 48 kHz, AAC, 2/0 (L,R), ~128.00 kbps avg-

Скриншоты

MediaInfo

BAMMA.18.Prelims.WEB.DL.x264-ViLLAiNS.mp4

General
ID : 1 (0x1)
Complete name : E:\uTorrent.Temp\Temp\BAMMA 18. Duquesnoy vs. Klaczek [SD, 480p, ENG]\BAMMA.18.Prelims.WEB.DL.x264-ViLLAiNS.mp4
Format : MPEG-TS
File size : 735 MiB
Duration : 1h 27mn
Overall bit rate mode : Variable
Overall bit rate : 1 176 Kbps
Video
ID : 256 (0x100)
Menu ID : 1 (0x1)
Format : AVC
Format/Info : Advanced Video Codec
Format profile : Main@L3.0
Format settings, CABAC : Yes
Format settings, ReFrames : 1 frame
Format settings, GOP : M=1, N=123
Codec ID : 27
Duration : 1h 27mn
Width : 854 pixels
Height : 480 pixels
Display aspect ratio : 16:9
Frame rate mode : Variable
Color space : YUV
Chroma subsampling : 4:2:0
Bit depth : 8 bits
Scan type : Progressive
Audio
ID : 257 (0x101)
Menu ID : 1 (0x1)
Format : AAC
Format/Info : Advanced Audio Codec
Format version : Version 4
Format profile : LC
Muxing mode : ADTS
Codec ID : 15
Duration : 1h 27mn
Bit rate mode : Variable
Channel(s) : 2 channels
Channel positions : Front: L R
Sampling rate : 48.0 KHz
Compression mode : Lossy
Delay relative to video : 5ms
Menu
ID : 4095 (0xFFF)
Menu ID : 1 (0x1)
Duration : 1h 27mn
List : 256 (0x100) (AVC) / 257 (0x101) (AAC)
Service name : Google
Service provider : FFmpeg
Service type : digital television

BAMMA.18.WEB.DL.x264-ViLLAiNS.mp4

General
Complete name : E:\uTorrent.Temp\Temp\BAMMA 18. Duquesnoy vs. Klaczek [SD, 480p, ENG]\BAMMA.18.WEB.DL.x264-ViLLAiNS.mp4
Format : MPEG-4
Format profile : Base Media
Codec ID : isom
File size : 950 MiB
Duration : 2h 2mn
Overall bit rate mode : Variable
Overall bit rate : 1 083 Kbps
Writing application : Lavf56.18.100
Video
ID : 1
Format : AVC
Format/Info : Advanced Video Codec
Format profile : Main@L3.0
Format settings, CABAC : Yes
Format settings, ReFrames : 1 frame
Format settings, GOP : M=1, N=123
Codec ID : avc1
Codec ID/Info : Advanced Video Coding
Duration : 2h 2mn
Bit rate : 967 Kbps
Width : 854 pixels
Height : 480 pixels
Display aspect ratio : 16:9
Frame rate mode : Variable
Frame rate : 24.600 fps
Minimum frame rate : 8.333 fps
Maximum frame rate : 25.000 fps
Color space : YUV
Chroma subsampling : 4:2:0
Bit depth : 8 bits
Scan type : Progressive
Bits/(Pixel*Frame) : 0.096
Stream size : 848 MiB (89%)
Audio
ID : 2
Format : AAC
Format/Info : Advanced Audio Codec
Format profile : LC
Codec ID : 40
Duration : 2h 2mn
Bit rate mode : Variable
Bit rate : 112 Kbps
Maximum bit rate : 128 Kbps
Channel(s) : 2 channels
Channel positions : Front: L R
Sampling rate : 48.0 KHz
Compression mode : Lossy
Stream size : 98.2 MiB (10%)

Кард

Preliminary Card:
[125 lbs] Chris Miah vs. Mick Gerrard
[135 lbs] Nathaniel Wood vs. Mike Cutting
[265 lbs] Stuart Austin vs. Artur Gluchowski-Main Card:
[185 lbs] Cheik Kone vs. Chris Fields
[155 lbs] Alexei Roberts vs. Hayden Critchfield
[145 lbs] Tom Duquesnoy vs. Krzysztof Klaczek
[Профиль] [ЛС]
Показать сообщения:    
Ответить на тему

Текущее время: 26-Июл 17:47

Часовой пояс: UTC + 1



Вы не можете начинать темы
Вы не можете отвечать на сообщения
Вы не можете редактировать свои сообщения
Вы не можете удалять свои сообщения
Вы не можете голосовать в опросах
Вы не можете прикреплять файлы к сообщениям
Вы не можете скачивать файлы