One Championship 40 Union of Warriors Full Event [18 03 2016 540p CHN]-WEB-DL-Rpunk :: Fight Tracker Russia

One Championship 40 Union of Warriors Full Event [18 03 2016 540p CHN]-WEB-DL-Rpunk

Ответить на тему
 
Автор Сообщение

Romapunk ®

Пол: Мужской

Стаж: 2 года 3 месяца

Сообщений: 475

Откуда: Вологодская область

Создавать темы 18-Мар-2016 22:53

[Цитировать]


Описание: One Championship 40. Union of Warriors.Full Event
Дата проведения: 18/03/2016
Место проведения: Thuwanna Indoor Stadium/Yangon, Myanmar
Язык комментариев: Chinese

Fight card


Video Info

General
Complete name : One Championship 40. Union of Warriors.Full Event [18.03.2016 540p CHN]-WEB-DL-Rpunk.mp4
Format : MPEG-4
Format profile : Base Media
Codec ID : isom
File size : 1.67 GiB
Duration : 3h 30mn
Overall bit rate mode : Variable
Overall bit rate : 1 137 Kbps
Writing application : Lavf56.15.102
Video
ID : 1
Format : AVC
Format/Info : Advanced Video Codec
Format profile : Main@L3.1
Format settings, CABAC : No
Format settings, ReFrames : 4 frames
Codec ID : avc1
Codec ID/Info : Advanced Video Coding
Duration : 3h 30mn
Bit rate mode : Variable
Bit rate : 1 007 Kbps
Maximum bit rate : 2 052 Kbps
Width : 960 pixels
Height : 540 pixels
Display aspect ratio : 16:9
Frame rate mode : Constant
Frame rate : 25.000 fps
Color space : YUV
Chroma subsampling : 4:2:0
Bit depth : 8 bits
Scan type : Progressive
Bits/(Pixel*Frame) : 0.078
Stream size : 1.48 GiB (89%)
Audio
ID : 2
Format : AAC
Format/Info : Advanced Audio Codec
Format profile : LC
Codec ID : 40
Duration : 3h 30mn
Bit rate mode : Variable
Bit rate : 118 Kbps
Maximum bit rate : 162 Kbps
Channel(s) : 2 channels
Channel positions : Front: L R
Sampling rate : 48.0 KHz
Compression mode : Lossy
Stream size : 178 MiB (10%)
[Профиль] [ЛС]
Показать сообщения:    
Ответить на тему

Текущее время: 26-Мар 15:56

Часовой пояс: UTC + 1



Вы не можете начинать темы
Вы не можете отвечать на сообщения
Вы не можете редактировать свои сообщения
Вы не можете удалять свои сообщения
Вы не можете голосовать в опросах
Вы не можете прикреплять файлы к сообщениям
Вы не можете скачивать файлы