RFA 24: Smith vs. Romer [Resurrection Fighting Alliance 24] (Main Card) [06.03.2015, MMA, WEBRip 480p, ENG] :: Fight Tracker Russia

RFA 24: Smith vs. Romer [Resurrection Fighting Alliance 24] (Main Card) [06.03.2015, MMA, WEBRip 480p, ENG]

Ответить на тему
 
Автор Сообщение

plarin ®

Пол: Мужской

Стаж: 2 года 2 месяца

Сообщений: 586

Откуда: Мадрид

Создавать темы 07-Мар-2015 17:30

[Цитировать]

RFA 24: Smith vs. Romer [Resurrection Fighting Alliance 24] (Main Card)- Год выпуска: 06.03.2015
Вид спорта: MMA
Продолжительность: 2:25:55
Язык комментариев: Английский-Описание: Главные бои турнира "RFA 24: Smith vs. Romer", прошедшего 6 марта 2015 года в "Mystic Lake Casino & Hotel", Прайор-Лейк, Миннесота, США.-Автор рипа/записи: FightCreature-Качество: WEBRip 480p
Формат: MP4
Видео: 854x480 (16:9), 29,970 fps, H264, ~1600 kbps avg, ~0.134 bit/pixel
Аудио: 48 kHz, AAC, 2/0 (L,R), ~93.4 kbps avg-

Скриншоты

Кард

Ben Smith vs. Indalecio Tat Romero
Melvin Blumer vs. Jeff Curran
Andre Tieva vs. Matt Brown
Bojan Velickovic vs. Chris Hugh
Marvin Blumer vs. Darrick Minner
Dan Moret vs. Bobby Moffett

MediaInfo

General
Complete name : E:\uTorrent.Temp\Done\RFA.24.Streamrip-FightCreature.MP4
Format : MPEG-4
Format profile : 3GPP Media Release 4
Codec ID : 3gp4
File size : 1.78 GiB
Duration : 2h 25mn
Overall bit rate : 1 745 Kbps
Encoded date : UTC 2015-03-07 13:00:47
Tagged date : UTC 2015-03-07 13:00:47
Video
ID : 1
Format : AVC
Format/Info : Advanced Video Codec
Format profile : Main@L4.0
Format settings, CABAC : Yes
Format settings, ReFrames : 1 frame
Format settings, GOP : M=1, N=80
Codec ID : avc1
Codec ID/Info : Advanced Video Coding
Duration : 2h 25mn
Bit rate : 1 643 Kbps
Width : 854 pixels
Height : 480 pixels
Display aspect ratio : 16:9
Frame rate mode : Constant
Frame rate : 29.970 fps
Color space : YUV
Chroma subsampling : 4:2:0
Bit depth : 8 bits
Scan type : Progressive
Bits/(Pixel*Frame) : 0.134
Stream size : 1.67 GiB (94%)
Language : English
Encoded date : UTC 2015-03-07 13:00:47
Tagged date : UTC 2015-03-07 13:00:47
Audio
ID : 2
Format : AAC
Format/Info : Advanced Audio Codec
Format profile : LC
Codec ID : 40
Duration : 2h 25mn
Bit rate mode : Constant
Bit rate : 93.4 Kbps
Channel(s) : 2 channels
Channel positions : Front: L R
Sampling rate : 48.0 KHz
Compression mode : Lossy
Stream size : 97.5 MiB (5%)
Language : English
Encoded date : UTC 2015-03-07 13:00:47
Tagged date : UTC 2015-03-07 13:00:47
[Профиль] [ЛС]

ujazzz

Пол: Мужской

Стаж: 1 год 10 месяцев

Сообщений: 577

Откуда: Syberia

Создавать темы 14-Янв-2016 13:54 (спустя 10 месяцев 6 дней)

[Цитировать]

Superserafim, перенесите пожалуйста топик в соответствующий раздел.
[Профиль] [ЛС]
Показать сообщения:    
Ответить на тему

Текущее время: 22-Фев 09:24

Часовой пояс: UTC + 1



Вы не можете начинать темы
Вы не можете отвечать на сообщения
Вы не можете редактировать свои сообщения
Вы не можете удалять свои сообщения
Вы не можете голосовать в опросах
Вы не можете прикреплять файлы к сообщениям
Вы не можете скачивать файлы