2016-06-25.SUPERKOMBAT.New.Heroes.9.1080p.Ru.WebDL-FTR

Ответить на тему
 
Автор Сообщение

quest195 ®

Пол: Не указан

Стаж: 8 месяца 8 дня

Сообщений: 113

Создавать темы 04-Апр-2018 10:21

[Цитировать]


Описание:
-
Место проведения: Румыния
Язык комментариев: Русский-При размещении на других ресурсах,
просьба не менять название файла.

Список поединков

Media Info

Metadata:
ENCODER : Lavf57.41.100
Duration: 01:42:39.96, start: 0.000000, bitrate: 4325 kb/s
Stream #0:0: Video: h264 (High), yuv420p, 1920x1080 [SAR 1:1 DAR 16:9], 25 fps, 25 tbr, 1k tbn, 50 tbc (default)
Metadata:
DURATION : 01:42:39.960000000
Stream #0:1: Audio: aac (LC), 44100 Hz, stereo, fltp (default)
Metadata:
DURATION : 01:42:39.952000000
Metadata:
ENCODER : Lavf57.41.100
Duration: 01:35:31.47, start: 0.000000, bitrate: 4320 kb/s
Stream #0:0: Video: h264 (High), yuv420p, 1920x1080 [SAR 1:1 DAR 16:9], 25 fps, 25 tbr, 1k tbn, 50 tbc (default)
Metadata:
DURATION : 01:35:31.474000000
Stream #0:1: Audio: aac (LC), 44100 Hz, stereo, fltp (default)
Metadata:
DURATION : 01:35:31.474000000

Скриншоты


[Профиль] [ЛС]

quest195 ®

Пол: Не указан

Стаж: 8 месяца 8 дня

Сообщений: 113

Создавать темы 07-Апр-2018 21:56 (спустя 3 дня)

[Цитировать]

Добавил первую часть турнира и переименовал файл. Извините за неудобства.
[Профиль] [ЛС]

American KGB

Пол: Мужской

Стаж: 3 года 10 месяца

Сообщений: 3222

Откуда: Лубянка

Создавать темы 08-Апр-2018 05:37 (спустя 7 часа)

[Цитировать]

спасиба гамаржоба
[Профиль] [ЛС]

quest195 ®

Пол: Не указан

Стаж: 8 месяца 8 дня

Сообщений: 113

Создавать темы 10-Апр-2018 19:09 (спустя 2 дня 13 часа)

[Цитировать]

Пажалуста Гамаржоба.
[Профиль] [ЛС]
Показать сообщения:    
Ответить на тему

Текущее время: 10-Дек 13:53

Часовой пояс: UTC + 1



Вы не можете начинать темы
Вы не можете отвечать на сообщения
Вы не можете редактировать свои сообщения
Вы не можете удалять свои сообщения
Вы не можете голосовать в опросах
Вы не можете прикреплять файлы к сообщениям
Вы не можете скачивать файлы